(Pop) [24/192][LP] Mylene Farmer - Ainsi Soit Je...©1988, FLAC (image+.cue)

Ответить на тему
Статистика раздачи
Размер:  1.7 GB   |    Зарегистрирован:  2 года 2 месяца   |    Скачан:  1 раз

Полного источника не было: 1 год 11 месяцев

 
   
 
 
Автор Сообщение

Serg ®

Пол: Мужской

Стаж: 3 года 5 месяцев

Сообщений: 143

Создавать темы 07-Дек-2015 19:37

[Цитировать]


Mylene Farmer - Ainsi Soit Je... ©1988
picЖанр: Pop

Год выпуска: 1988

Лейбл: Polydor

Страна-производитель: France

Аудио кодек: FLAC

Тип рипа: image+.cue

Формат записи: 24/192

Формат раздачи: 24/192

Продолжительность: 45'43"

Треклист:

A1 L'Horloge 5:03

A2 Sans Contrefaçon 4:07

A3 Allan 4:46

A4 Pourvu Qu'Elles Soient Douces 4:52

A5 La Ronde Triste 4:13

B1 Ainsi Soit Je... 6:18

B2 Sans Logique 4:30

B3 Jardin De Vienne 5:17

B4 Deshabillez-Moi 3:45

B5 The Farmer's Conclusion 2:15
Источник оцифровки: LP

Код класса состояния винила: NM

Устройство воспроизведения: Denon DL-S1

Предварительный усилитель: EAR 834 modifed

АЦП: RME HDSP 9632

Программа-оцифровщик: Sound Forge 10

Обработка: Sound Forge 10

Спектр - АЧХ - Уровень записи





Дополнительная информация

Backing Vocals– Moines Fous Du Tibet, Les, Mylène Farmer

Bass– Bernard Paganotti

Engineer, Mixed By– Thierry Rogen

Engineer, Mixed By [Assistant]– Philippe Colonna

Guitar– Slim Pezin

Lyrics By– Mylène Farmer (tracks: A2 to B3)

Mastered By– André Perriat

Music By– Laurent Boutonnat (tracks: A1 to B3, B5)

Panpipes, Other [Shakuhachi]– Pol Ramirez Del Più

Producer, Piano, Synthesizer, Arranged By– Laurent Boutonnat

Programmed By– Frederic Rousseau*, Thierry Rogen

Ⓟ 1988 Laurent Boutonnat except

Ⓟ 1987 Laurent Boutonnat A2, A5, B4

© 1988 Polydor Paris

Diffusé par Polydor.

Pressed at MPO Averton.

Ed. Bertrand Le Page/Polygram Music sauf "Déshabillez-Moi": Intersong Paris.

835 564-1/2

http://www.discogs.com/Myl%C3%A8ne-Farmer-Ainsi-Soit-Je/release/727952


ПРОШУ ИЗВИНИТЬ ЗА НЕУДОБСТВА И ИСПРАВИТЬ ПОЛНОСТЬ ФАЙЛ CUE, СПАСИБО ЗА ПОНИМАНИЕ:

скрытый текст

REM GENRE Pop

REM DATE 1988

REM COMMENT Polydor vinyl rip

REM Label Polydor, 835 564-1

CATALOG 042283556416

PERFORMER "Mylene Farmer"

TITLE "Ainsi Soit Je..."

FILE "Mylene Farmer - Ainsi Soit Je... (24.192).flac" WAVE

TRACK 01 AUDIO

TITLE "L'Horloge"

PERFORMER "Mylene Farmer"

INDEX 01 00:00:00

TRACK 02 AUDIO

TITLE "Sans Contrefacon"

PERFORMER "Mylene Farmer"

INDEX 00 05:02:53

INDEX 01 05:04:62

TRACK 03 AUDIO

TITLE "Allan"

PERFORMER "Mylene Farmer"

INDEX 00 09:11:56

INDEX 01 09:14:27

TRACK 04 AUDIO

TITLE "Pourvu Qu'Elles Soient Douces"

PERFORMER "Mylene Farmer"

INDEX 00 14:01:23

INDEX 01 14:04:73

TRACK 05 AUDIO

TITLE "La Ronde Triste"

PERFORMER "Mylene Farmer"

INDEX 00 18:57:25

INDEX 01 19:01:36

TRACK 06 AUDIO

TITLE "Ainsi Soit Je..."

PERFORMER "Mylene Farmer"

INDEX 00 23:15:10

INDEX 01 23:17:28

TRACK 07 AUDIO

TITLE "Sans Logique"

PERFORMER "Mylene Farmer"

INDEX 00 29:35:21

INDEX 01 29:39:38

TRACK 08 AUDIO

TITLE "Jardin De Vienne"

PERFORMER "Mylene Farmer"

INDEX 00 34:08:46

INDEX 01 34:14:01

TRACK 09 AUDIO

TITLE "Deshabillez-Moi"

PERFORMER "Mylene Farmer"

INDEX 00 39:31:27

INDEX 01 39:35:35

TRACK 10 AUDIO

TITLE "The Farmer's Conclusion"

PERFORMER "Mylene Farmer"

INDEX 00 43:21:05

INDEX 01 43:26:22



[mylene.org.ru].t92.torrent 
Торрент: Зарегистрирован [ 2015-12-07 19:37 ] · E4E3373391741EAACF17A768E41CEFEC222E8156

Скачать .torrent

Скачать

18 KB

Статус: проверено
Скачан: 1 раз
Размер: 1.7 GB
 
[Профиль] [ЛС]
Показать сообщения:    
Ответить на тему

Текущее время: 22-Фев 22:24

Часовой пояс: UTC ± 0



Вы не можете начинать темы
Вы не можете отвечать на сообщения
Вы не можете редактировать свои сообщения
Вы не можете удалять свои сообщения
Вы не можете голосовать в опросах
Вы не можете прикреплять файлы к сообщениям
Вы можете скачивать файлы